˂
˃
Tarqatmalar statistikasi
Ko‘chirmoqdaman: [ 12 ]
Ko‘chirib bo‘ldim: [ 51 ]
 
     
 
 

dilshod6663 ®

Jins:
Ko‘rsatilmagan
Staj:
1 yil 7 oy
Xabarlar:
78
Taqiq:

Chiqarilgan yil: 2019
Mamlakat: Rossiya
Janr: Jangari, drama, harbiy, Tarixiy
Ajratilgan vaqt: 01:37:12
Tarjima #1: Professional Ko'p ovozli O'zbek tili (Favvora studiyasi)
Tarjima #2: Original rus tili (i-tunes)
Rejissor: Aleksey Kozlov
Rollarda:
Mariya Melnikova, Andrey Mironov-Udalov, Gela Mesxiy, Anastasiya Melnikova, Sergey Jarkov,
Ivan Lirikov, Valeriy Degtyar, Mixail Morozov, Nikolay Gorshkov, Evgeniya Lyubimova
Tavsif:
Sentyabr 1941. Kosta va Nastya yosh ko'ngilxushlari, sharoitlar irodasiga ko'ra,
odamlarni qamalda qolgan Leningraddan olib chiqish kerak bo'lgan marmar ustida topadilar.
Kechasi kema bo'ronga tushadi va qayg'u ichida, fojea sodir bo'lgan joyda,
birinchi bo'lib ko'ringan qutqaruvchilar emas, balki dushman samolyotlari.
Sifat: WEB-DLRip
Format: MKV
Video: XviD, ~ 1757 Kbit / s, 720x304
Audio: MP3, 2 ch, 44.1 KHz, 128 Kbps / O'ZB
Audio: iTunes AC3,6 ch, 48.0 KHz,384 Kbps / RUS

Media info ma'lumotlari:

General
Unique ID : 235832600573876256479445924977418033987 (0xB16BB4EC4F3077C1D188A5188B95DB43)
Complete name : G:\kino\leningrad mudofasi\leningrad mudofasi DLRip..mkv
Format : Matroska
Format version : Version 4 / Version 2
File size : 1.54 GiB
Duration : 1h 37mn
Overall bit rate : 2 266 Kbps
Encoded date : UTC 2019-05-07 23:07:25
Writing application : mkvmerge v25.0.0 ('Prog Noir') 64-bit
Writing library : libebml v1.3.6 + libmatroska v1.4.9
DURATION : 01:37:13.796000000
NUMBER_OF_FRAMES : 223325
NUMBER_OF_BYTES : 93126525
_STATISTICS_WRITING_APP : mkvmerge v25.0.0 ('Prog Noir') 64-bit
_STATISTICS_WRITING_DATE_UTC : 2019-05-07 23:07:25
_STATISTICS_TAGS : BPS DURATION NUMBER_OF_FRAMES NUMBER_OF_BYTES
Video
ID : 1
Format : MPEG-4 Visual
Format profile : Advanced Simple@L5
Format settings, BVOP : No
Format settings, QPel : No
Format settings, GMC : No warppoints
Format settings, Matrix : Default (H.263)
Codec ID : V_MS/VFW/FOURCC / XVID
Codec ID/Hint : XviD
Duration : 1h 37mn
Bit rate : 1 709 Kbps
Width : 720 pixels
Height : 304 pixels
Display aspect ratio : 2.40:1
Original display aspect ratio : 2.40:1
Frame rate mode : Constant
Frame rate : 24.000 fps
Color space : YUV
Chroma subsampling : 4:2:0
Bit depth : 8 bits
Scan type : Progressive
Compression mode : Lossy
Bits/(Pixel*Frame) : 0.325
Stream size : 1.16 GiB (75%)
Writing library : XviD 67
Default : Yes
Forced : No
Audio #1
ID : 2
Format : AC-3
Format/Info : Audio Coding 3
Mode extension : CM (complete main)
Format settings, Endianness : Big
Codec ID : A_AC3
Duration : 1h 37mn
Bit rate mode : Constant
Bit rate : 384 Kbps
Channel(s) : 6 channels
Channel positions : Front: L C R, Side: L R, LFE
Sampling rate : 48.0 KHz
Bit depth : 16 bits
Compression mode : Lossy
Stream size : 267 MiB (17%)
Default : Yes
Forced : No
Audio #2
ID : 3
Format : MPEG Audio
Format version : Version 1
Format profile : Layer 3
Mode : Joint stereo
Mode extension : MS Stereo
Codec ID : A_MPEG/L3
Codec ID/Hint : MP3
Duration : 1h 37mn
Bit rate mode : Constant
Bit rate : 128 Kbps
Channel(s) : 2 channels
Sampling rate : 44.1 KHz
Compression mode : Lossy
Stream size : 89.0 MiB (6%)
Title : Uzbek tili Favvora Studiyasi
Language : Uzbek
Default : No
Forced : No
.torrent yuklash

Yuqori tezlikda va bepul ko‘chirish!

Qanday yuklab olinadi? · Torrent nima o‘zi? · Reyting va cheklovlar



So‘ngi marta tahrirlandi: dilshod6663 (2019-05-08 12:14), Jami tahrirlangan 1 marta
Profil ShX

rameo1988

Jins:
Yigit
Staj:
7 oy 7 kun
Xabarlar:
64

Qayerdan: Tashkent

Taqiq:

dilshod6663, Yengiliklar u4un raxmat

Mavzu yaratish 08-May-2019 04:43 (5 daqiqa o‘tgach)

Iqitibos

Profil ShX

Gr@nd

Jins:
Yigit
Staj:
1 yil 9 oy
Xabarlar:
170

Qayerdan: Jizzax Forish

Taqiq:

dilshod6663, Ishingizga omad

Mavzu yaratish 08-May-2019 20:20 (15 soat o‘tgach)

Iqitibos

Profil ShX

dark

Jins:
Ko‘rsatilmagan
Staj:
6 oy 7 kun
Xabarlar:
1
Taqiq:

Bu saytda umuman tarkatma yoq.Xamma kinolar yarim yolda qolib ketyapti

Mavzu yaratish 09-May-2019 11:41 (15 soat o‘tgach)

Iqitibos

Profil ShX

AxeL

Jins:
Yigit
Staj:
1 yil 4 oy
Xabarlar:
743

Qayerdan: Gronland, Norway

Taqiq:

dark, nimaga asoslanib bunchalik tanqid qilyapsiz? Trekerni statistikasiga nazar solsangiz 1500 dan ortiq relizlar mavjudligini, 500 dan ortiq siderlar bor ekanligini ko'rishingiz mumkin!!!

Mavzu yaratish 09-May-2019 13:57 (2 soat 16 daqiqa o‘tgach)

Iqitibos

Profil ShX

Soft-Release

Jins:
Yigit
Staj:
1 yil 4 oy
Xabarlar:
807

Qayerdan: Kattakurgan

Taqiq:

8200dark, nimaga asoslanib bunchalik tanqid qilyapsiz? Trekerni statistikasiga nazar solsangiz 1500 dan ortiq relizlar mavjudligini, 500 dan ortiq siderlar bor ekanligini ko'rishingiz mumkin!!!
AxeL, Relizni Tarqatmaganlarizga Asabi Buzilayabdi Shekilli! ag Bu Yerda Pachti Hammada ADSL Ekanligini Bilmasa Kerakda )

Mavzu yaratish 09-May-2019 22:58 (9 soat o‘tgach)

Iqitibos

Profil ShX
Xabarlarni ko‘rsatish:    

Hozirgi vaqt: 21-Iyul 05:10

Vaqtlar farqi: UTC + 5



Siz mavzu yaratishingiz mumkin emas
Siz xabarlarga javob qaytarishingiz mumkin emas
Siz o‘z xabarlaringizni tahrirlashingiz mumkin emas
Siz o‘z xabarlaringizni o‘chirishingiz mumkin emas
Siz so‘rovlarda ovoz berishingiz mumkin emas
Siz xabalarga fayllarni biriktirishingiz mumkin emas
Siz fayllarni ko‘chirishingiz mumkin emas