˂
˃
Tarqatmalar statistikasi
Ko‘chirmoqdaman: [ 5 ]
Ko‘chirib bo‘ldim: [ 4 ]
 
     
 
 

KILLER_89-10 ®

Jins:
Yigit
Staj:
1 yil 3 oy
Xabarlar:
34
Taqiq:

"Vasiyat"
Chiqqan yili: 2019
Davlat: O'zbeksiton
Janr: Drama
Davomiyligi: 01:43:35
Tarjima: Talab etilmaydi-Rejissor: Said Muxtorov----Bosh rollarda: Javohir Zokirov, Ubaydulla Omon, Louise Rasulova, Zarina Nizomiddinova, Ulug'bek Kodirov. Dilnoza Kubayeva-Film haqida: Filmdagi asosiy voqealar bosh qahramonning turmush o‘rtog‘i og‘ir xastalik tufayli vafot etishidan keyin boshlanadi.-Sifat: WEBRip
Video format: MP4
Video:[/b MPEG4 Video (H264) 1264x741 25fps 1303kbps
Audio: AAC 44100Hz stereo 127kbps--

MedioInfo

General
General
Complete name : D:\FILM\KINOLAR\o'zbek kinolari\Vasiyat (Uzbek kino) ¦ Васият (узбекфильм).mp4
Format : MPEG-4
Format profile : Base Media
Codec ID : isom
File size : 1.04 GiB
Duration : 1h 43mn
Overall bit rate : 1 438 Kbps
Writing application : Lavf57.2.100
Video
ID : 1
Format : AVC
Format/Info : Advanced Video Codec
Format profile : High@L4.0
Format settings, CABAC : Yes
Format settings, ReFrames : 3 frames
Codec ID : avc1
Codec ID/Info : Advanced Video Coding
Duration : 1h 43mn
Bit rate : 1 304 Kbps
Width : 1 920 pixels
Height : 1 080 pixels
Display aspect ratio : 16:9
Frame rate mode : Constant
Frame rate : 25.000 fps
Color space : YUV
Chroma subsampling : 4:2:0
Bit depth : 8 bits
Scan type : Progressive
Bits/(Pixel*Frame) : 0.025
Stream size : 966 MiB (91%)
Writing library : x264 core 155 r2901 7d0ff22
Color primaries : BT.709
Transfer characteristics : BT.709
Matrix coefficients : BT.709
Audio
ID : 2
Format : AAC
Format/Info : Advanced Audio Codec
Format profile : LC
Codec ID : 40
Duration : 1h 43mn
Bit rate mode : Constant
Bit rate : 128 Kbps
Channel(s) : 2 channels
Channel positions : Front: L R
Sampling rate : 44.1 KHz
Compression mode : Lossy
Stream size : 94.8 MiB (9%)
Language : English
--
.torrent yuklash

Yuqori tezlikda va bepul ko‘chirish!

Qanday yuklab olinadi? · Torrent nima o‘zi? · Reyting va cheklovlar

Profil ShX
Xabarlarni ko‘rsatish:    

Hozirgi vaqt: 27-Iyun 09:17

Vaqtlar farqi: UTC + 5



Siz mavzu yaratishingiz mumkin emas
Siz xabarlarga javob qaytarishingiz mumkin emas
Siz o‘z xabarlaringizni tahrirlashingiz mumkin emas
Siz o‘z xabarlaringizni o‘chirishingiz mumkin emas
Siz so‘rovlarda ovoz berishingiz mumkin emas
Siz xabalarga fayllarni biriktirishingiz mumkin emas
Siz fayllarni ko‘chirishingiz mumkin emas