˂
˃
Tarqatmalar statistikasi
Ko‘chirmoqdaman: [ 1 ]
Ko‘chirib bo‘ldim: [ 9 ]
 
     
 
 

AxeL ®

Jins:
Yigit
Staj:
1 yil 2 oy
Xabarlar:
743

Qayerdan: Gronland, Norway

Taqiq:

Gumbaz ostida (1-Fasl) / Под куполом (Cезон 1) / Under the Dome (Season 1)- Chiqqan yili: 2013
Davlat: AQSH
Janr: fantastika, triller, drama, detektiv
Davomiyligi: ~00:43:00x13
Fasl: 1
Qism: 1-qism
Tarjima: Professional dublyaj - [YoshlarTV]-Rejissyor: Jek Bender, Piter Leto-Rollarda: Maykl Fogel, Reshel Lefevr, Aleksandr Kok, Kolin Ford, Makkenzi Lintz, Din Norris, Eddi Kexill, Maks Erix, Nikolas Strong,...-Serial haqida: Odatiy hayot tarzi o'tib turgan Chester's Mill aholisi yashayotgan joyga nomalum gumbaz tushganligi sababli, aholida sarosima uyg'ondi. Voqealar rivoji keskin tus oldi, hamma chiqish joyi berk, yovuzlik avjiga chiqdi...-Sifat: WEB-DLRip
Format: MKV
Video: Xvid 720x400 23.976fps 1 529 Kbps
Audio №1: MP3 48000Hz stereo 128kbps Rus tilida
Audio №2: MP3 48000Hz stereo 128kbps Ingliz tilida
Audio №3: MP3 44100Hz stereo 192kbps O'zbek tilida

Media Info

General
Unique ID                      : 195795825180434616436842863772000420473 (0x934CE77E3ECD6D2880C7F10FA5718279)
Complete name                  : D:\Films\Serial\Gumbaz Ostida\Gumbaz Ostida (1-fasl)\Gumbaz.Ostida.f01q01.AxeL.mkv
Format                         : Matroska
Format version                 : Version 4 / Version 2
File size                      : 606 MiB
Duration                       : 42mn 47s
Overall bit rate               : 1 979 Kbps
Encoded date                   : UTC 2019-05-10 16:23:38
Writing application            : mkvmerge v22.0.0 ('At The End Of The World') 64-bit
Writing library                : libebml v1.3.5 + libmatroska v1.4.8
Video
ID                             : 1
Format                         : MPEG-4 Visual
Format profile                 : Advanced Simple@L5
Format settings, BVOP          : 1
Format settings, QPel          : No
Format settings, GMC           : No warppoints
Format settings, Matrix        : Custom
Codec ID                       : V_MS/VFW/FOURCC / XVID
Codec ID/Hint                  : XviD
Duration                       : 42mn 47s
Bit rate                       : 1 529 Kbps
Width                          : 720 pixels
Height                         : 400 pixels
Display aspect ratio           : 16:9
Frame rate mode                : Constant
Frame rate                     : 23.976 (23976/1000) fps
Color space                    : YUV
Chroma subsampling             : 4:2:0
Bit depth                      : 8 bits
Scan type                      : Progressive
Compression mode               : Lossy
Bits/(Pixel*Frame)             : 0.221
Stream size                    : 468 MiB (77%)
Writing library                : XviD 73
Default                        : Yes
Forced                         : No
Audio #1
ID                             : 2
Format                         : MPEG Audio
Format version                 : Version 1
Format profile                 : Layer 3
Mode                           : Joint stereo
Codec ID                       : A_MPEG/L3
Codec ID/Hint                  : MP3
Duration                       : 42mn 47s
Bit rate mode                  : Constant
Bit rate                       : 128 Kbps
Channel(s)                     : 2 channels
Sampling rate                  : 48.0 KHz
Frame rate                     : 41.667 fps (1152 spf)
Compression mode               : Lossy
Stream size                    : 39.2 MiB (6%)
Title                          : Rus tilida (DUB)
Language                       : Russian
Default                        : Yes
Forced                         : No
Audio #2
ID                             : 3
Format                         : MPEG Audio
Format version                 : Version 1
Format profile                 : Layer 3
Mode                           : Joint stereo
Mode extension                 : MS Stereo
Codec ID                       : A_MPEG/L3
Codec ID/Hint                  : MP3
Duration                       : 42mn 47s
Bit rate mode                  : Constant
Bit rate                       : 128 Kbps
Channel(s)                     : 2 channels
Sampling rate                  : 48.0 KHz
Frame rate                     : 41.667 fps (1152 spf)
Compression mode               : Lossy
Stream size                    : 39.2 MiB (6%)
Title                          : Ingliz tilida
Language                       : English
Default                        : No
Forced                         : No
Audio #3
ID                             : 4
Format                         : MPEG Audio
Format version                 : Version 1
Format profile                 : Layer 3
Mode                           : Joint stereo
Codec ID                       : A_MPEG/L3
Codec ID/Hint                  : MP3
Duration                       : 42mn 47s
Bit rate mode                  : Constant
Bit rate                       : 192 Kbps
Channel(s)                     : 2 channels
Sampling rate                  : 44.1 KHz
Frame rate                     : 38.281 fps (1152 spf)
Compression mode               : Lossy
Stream size                    : 58.8 MiB (10%)
Title                          : O'zbek tilida (DUB) Yoshlar (AxeL)
Writing library                : LAME3.97
Language                       : Uzbek
Default                        : No
Forced                         : No
.torrent yuklash

Yuqori tezlikda va bepul ko‘chirish!

Qanday yuklab olinadi? · Torrent nima o‘zi? · Reyting va cheklovlar



So‘ngi marta tahrirlandi: AxeL (2019-05-19 09:29), Jami tahrirlangan 1 marta
Profil ShX

rameo1988

Jins:
Yigit
Staj:
5 oy 11 kun
Xabarlar:
61

Qayerdan: Tashkent

Taqiq:

AxeL, davomi qa4on qo'yas

Mavzu yaratish 11-May-2019 12:36 (14 soat o‘tgach)

Iqitibos

Profil ShX

AxeL ®

Jins:
Yigit
Staj:
1 yil 2 oy
Xabarlar:
743

Qayerdan: Gronland, Norway

Taqiq:

rameo1988, sekin sekin qoʼyib boraveramiz koʼchiravering afsuslanmaysiz)

Mavzu yaratish 11-May-2019 16:40 (4 soat o‘tgach)

Iqitibos

Profil ShX

Firdavs93

Jins:
Ko‘rsatilmagan
Staj:
1 yil
Xabarlar:
4
Taqiq:

tezlik yoqku

Mavzu yaratish 14-May-2019 12:32 (2 kun 19 soat o‘tgach)

Iqitibos

Profil ShX

AxeL ®

Jins:
Yigit
Staj:
1 yil 2 oy
Xabarlar:
743

Qayerdan: Gronland, Norway

Taqiq:

Firdavs93, bor tezligimiz bilan tarqatyapmiz

Mavzu yaratish 14-May-2019 20:15 (7 soat o‘tgach)

Iqitibos

Profil ShX

AxeL ®

Jins:
Yigit
Staj:
1 yil 2 oy
Xabarlar:
743

Qayerdan: Gronland, Norway

Taqiq:

2-qism joylandi! Torrent faylni yangilang!

Mavzu yaratish 19-May-2019 09:33 (4 kun o‘tgach)

Iqitibos

Profil ShX
Xabarlarni ko‘rsatish:    

Hozirgi vaqt: 24-May 15:43

Vaqtlar farqi: UTC + 5



Siz mavzu yaratishingiz mumkin emas
Siz xabarlarga javob qaytarishingiz mumkin emas
Siz o‘z xabarlaringizni tahrirlashingiz mumkin emas
Siz o‘z xabarlaringizni o‘chirishingiz mumkin emas
Siz so‘rovlarda ovoz berishingiz mumkin emas
Siz xabalarga fayllarni biriktirishingiz mumkin emas
Siz fayllarni ko‘chirishingiz mumkin emas