˂
˃
Tarqatmalar statistikasi
Ko‘chirmoqdaman: [ 12 ]
Ko‘chirib bo‘ldim: [ 33 ]
 
     
 
 

bekastar ®

Jins:
Yigit
Staj:
11 oy 28 kun
Xabarlar:
34

Qayerdan: Samarqand

Taqiq:

--Zavqli sarguzashtlar / Тотальное веселье / Total Dhamaa- Chiqqan yili: 2019
Davlat: Hindiston
Janri: Jangari, komediya, sarguzasht
Davomiyligi: 02:07:15
Tarjima: Dublyaj (Professional kadr ortidan) [MY5 ] O'zbek Tilida-Rejissiyor: Indra Kumar-Sеnariy: Paritosh Painter, Ved Prakas, Banti Ratod
Prodyusеr: Ajay Devgan, Indra Kumar, Anand Pandit
Tasvirchi: Keiko Nakahara
Bastakor: Gourav Roshan
Rassom: Anupamey Sawale, Depika Lal,
Montaj ustasi: Dharmendra Sharma-Rollarda: Anil Kapoor, Madhuri Dikshit, Ajay Devgan, Arshad Varsi, Riteish Deshmukh, Javed Jaffrey, Sanjay Misra, Boman Irani, Esha Gupta, Johnny Lever-Tavsif: Millionlab boshqa aqldan qochish. Bu safar ajablanadigan erga, er-xotinga ajralish, birodarlar - yutqazganlar, mahalliy qotillar, politsiya komissari va taniqli scammers - va ular hayvonot bog'iga yirtqich hayvonlar bilan borishadi.- -Ashqda to`plagan mablag`i: $1 756 926
Dunyo bo`ylab to`plagan mablag`i: + $14 278 198 = $16 035 124
Rossiya bo`yicha to`plagan mablag`i: $17 591-Sifat: WEB-DL
Format: MKV
Video: | H.264/AVC 1920x1080 / 23.976fps / 2500 kb/s
Audio #1: MPEG -1 layer 3 44100Hz stereo 128 Kbps O'zbek tilida (MY5)
Audio #2: Dolby AC3 48000Hz 6chl 192 Kbps / Russ Tilida (Selena)

Audio #3: Dolby AC3 48000Hz stereo 112Kbps / (Hindcha haqiqiy ovoz)

Media Info

Общее
Уникальный идентификатор                 : 191188890384599913620441816271013921265 (0x8FD5A412312304F9A63063615795C1F1)
Полное имя                               : E:\KINO\Hind Kino\Zavqli sarguzashtlar.Uzb.Rus.Hindi.mkv
Формат                                   : Matroska
Версия формата                           : Version 4 / Version 2
Размер файла                             : 2,56 Гбайт
Продолжительность                        : 2 ч. 7 м.
Общий поток                              : 2878 Кбит/сек
Название фильма                          : Total Dhamaal WEB-DL 1080p
Дата кодирования                         : UTC 2019-05-15 11:10:58
Программа кодирования                    : mkvmerge v8.3.0 ('Over the Horizon') 64bit
Библиотека кодирования                   : libebml v1.3.1 + libmatroska v1.4.2
Видео
Идентификатор                            : 2
Формат                                   : AVC
Формат/Информация                        : Advanced Video Codec
Профиль формата                          : High@L4
Настройки формата                        : CABAC / 4 Ref Frames
Параметр CABAC формата                   : Да
Параметр RefFrames формата               : 4 кадра
Идентификатор кодека                     : V_MPEG4/ISO/AVC
Продолжительность                        : 2 ч. 7 м.
Битрейт                                  : 2500 Кбит/сек
Ширина                                   : 1920 пикселей
Высота                                   : 1080 пикселей
Соотношение сторон                       : 16:9
Режим частоты кадров                     : Постоянный
Частота кадров                           : 24,000 кадра/сек
Цветовое пространство                    : YUV
Субдискретизация насыщенности            : 4:2:0
Битовая глубина                          : 8 бит
Тип развёртки                            : Прогрессивная
Бит/(Пиксели*Кадры)                      : 0.050
Размер потока                            : 2,21 Гбайт (87%)
Библиотека кодирования                   : x264 core 155 r2917 0a84d98
Настройки программы                      : cabac=1 / ref=4 / deblock=1:-1:-1 / analyse=0x3:0x113 / me=hex / subme=8 / psy=1 / psy_rd=1.00:0.15 / mixed_ref=1 / me_range=16 / chroma_me=1 / trellis=2 / 8x8dct=1 / cqm=0 / deadzone=21,11 / fast_pskip=1 / chroma_qp_offset=-3 / threads=24 / lookahead_threads=4 / sliced_threads=0 / nr=0 / decimate=1 / interlaced=0 / bluray_compat=0 / constrained_intra=0 / bframes=3 / b_pyramid=2 / b_adapt=2 / b_bias=0 / direct=3 / weightb=1 / open_gop=0 / weightp=2 / keyint=48 / keyint_min=25 / scenecut=0 / intra_refresh=0 / rc_lookahead=48 / rc=2pass / mbtree=1 / bitrate=2500 / ratetol=1.0 / qcomp=0.60 / qpmin=0 / qpmax=69 / qpstep=4 / cplxblur=20.0 / qblur=0.5 / vbv_maxrate=3500 / vbv_bufsize=5000 / nal_hrd=none / filler=0 / ip_ratio=1.40 / aq=1:1.00
Default                                  : Да
Forced                                   : Нет
Цветовой диапазон                        : Limited
Основные цвета                           : BT.709
Характеристики трансфера                 : BT.709
Коэффициенты матрицы                     : BT.709
Аудио #1
Идентификатор                            : 1
Формат                                   : MPEG Audio
Версия формата                           : Version 1
Профиль формата                          : Layer 3
Настройки формата                        : Joint stereo
Идентификатор кодека                     : A_MPEG/L3
Идентификатор кодека/Подсказка           : MP3
Продолжительность                        : 2 ч. 7 м.
Вид битрейта                             : Постоянный
Битрейт                                  : 128 Кбит/сек
Каналы                                   : 2 канала
Частота                                  : 44,1 КГц
Частота кадров                           : 38,281 кадров/сек (1152 SPF)
Метод сжатия                             : С потерями
Задержка видео                           : -83 мс.
Размер потока                            : 117 Мбайт (4%)
Заголовок                                : o'zbek tilida
Библиотека кодирования                   : LAME3.98.2
Язык                                     : Uzbek
Default                                  : Нет
Forced                                   : Нет
Аудио #2
Идентификатор                            : 3
Формат                                   : AC-3
Формат/Информация                        : Audio Coding 3
Коммерческое название                    : Dolby Digital
Идентификатор кодека                     : A_AC3
Продолжительность                        : 2 ч. 7 м.
Вид битрейта                             : Постоянный
Битрейт                                  : 192 Кбит/сек
Каналы                                   : 2 канала
Channel layout                           : L R
Частота                                  : 48,0 КГц
Частота кадров                           : 31,250 кадров/сек (1536 SPF)
Битовая глубина                          : 16 бит
Метод сжатия                             : С потерями
Задержка видео                           : -83 мс.
Размер потока                            : 175 Мбайт (7%)
Язык                                     : Russian
ServiceKind/String                       : Complete Main
Default                                  : Да
Forced                                   : Нет
Аудио #3
Идентификатор                            : 4
Формат                                   : AAC LC
Формат/Информация                        : Advanced Audio Codec Low Complexity
Идентификатор кодека                     : A_AAC-2
Продолжительность                        : 2 ч. 7 м.
Битрейт                                  : 63,7 Кбит/сек
Каналы                                   : 2 канала
Channel layout                           : L R
Частота                                  : 48,0 КГц
Частота кадров                           : 46,875 кадров/сек (1024 SPF)
Метод сжатия                             : С потерями
Задержка видео                           : -83 мс.
Размер потока                            : 58,0 Мбайт (2%)
Язык                                     : Hindi
Default                                  : Нет
Forced                                   : Нет
-LAVHALAR--
.torrent yuklash

Yuqori tezlikda va bepul ko‘chirish!

Qanday yuklab olinadi? · Torrent nima o‘zi? · Reyting va cheklovlar

Profil ShX

AxeL

Jins:
Yigit
Staj:
1 yil 2 oy
Xabarlar:
743

Qayerdan: Gronland, Norway

Taqiq:

Zo'r! super komediya!

Mavzu yaratish 15-May-2019 17:09 (2 soat 51 daqiqa o‘tgach)

Iqitibos

Profil ShX

Unofficial

Jins:
Yigit
Staj:
1 yil 1 oy
Xabarlar:
449

Qayerdan: Nukus

Taqiq:

8245Zo'r! super komediya!
zo'ri zo'r ekanu lekin, eng so'nggi tarjima filmlar makoni degan shiorga ega saytning audio reklamasi qob ketibtiyu

Mavzu yaratish 16-May-2019 10:30 (17 soat o‘tgach)

Iqitibos

Profil ShX

atadjanov11

Jins:
Ko‘rsatilmagan
Staj:
1 yil 5 oy
Xabarlar:
5
Taqiq:

Skorost beradigan bomi

Mavzu yaratish 18-May-2019 14:59 (2 kun 4 soat o‘tgach)

Iqitibos

Profil ShX

bekastar ®

Jins:
Yigit
Staj:
11 oy 28 kun
Xabarlar:
34

Qayerdan: Samarqand

Taqiq:

100mb/s skorost yetadimi?

Mavzu yaratish 18-May-2019 17:57 (2 soat 57 daqiqa o‘tgach)

Iqitibos

Profil ShX
Xabarlarni ko‘rsatish:    

Hozirgi vaqt: 24-May 14:42

Vaqtlar farqi: UTC + 5



Siz mavzu yaratishingiz mumkin emas
Siz xabarlarga javob qaytarishingiz mumkin emas
Siz o‘z xabarlaringizni tahrirlashingiz mumkin emas
Siz o‘z xabarlaringizni o‘chirishingiz mumkin emas
Siz so‘rovlarda ovoz berishingiz mumkin emas
Siz xabalarga fayllarni biriktirishingiz mumkin emas
Siz fayllarni ko‘chirishingiz mumkin emas