˂
˃
Tarqatmalar statistikasi
Ko‘chirib bo‘ldim: [ 19 ]
 
     
 
 

logan7272 ®

Jins:
Yigit
Staj:
1 yil 2 oy
Xabarlar:
73

Qayerdan: Namangan

Taqiq:

Ajdarho o'rgatuvchilar 2 | How to Train Your Dragon 2 - -Chiqqan yili: 2014
Davlat: AQSh
Janr: Multfilm, Fantastika, Komediya, Sarguzasht
Davomiyligi: 01:42:01
Tarjima: Professional [Ko'p ovozli]-Rejissyor: Din DeBlua | Dean DeBlois-Rollarda: Jey Barushel, Kate Blanshett, Gerard Butler, Kreyg Ferguson, Amerika Ferrera, Jon Hill,
Kristofer Mintz-Plassse, TJ Miller, Kristen Uig, Jimon Honsu-Film haqida: Vikinglar va ajdaholarning kelishuvidan beri besh yil o'tdi. Astrid, Smorkala va boshqa bolalar orolda mashhur ajdaho poygalarida bir-birlari bilan raqobatlashib, vaqtincha, Iking va Kemshik osmon bo'ylab sayohat qilib, noma'lum joylarni xaritada o'tkazadilar. Sarguzashtlardan biri yuzlab ilgari ko'rinmaydigan yovvoyi ajdahalar va sirli ajdahon ustaxonasi bo'lgan maxfiy muz g'orining kashf qilinishiga olib kelganda, ikki do'st dunyoni himoya qilish uchun jang maydonida o'zlarini topadi.-Sifat: BDRip 1080p
Format: MKV-Video: HEVC, 1920x816, 1438 Kbps
Audio # 1:MP3, 44 kHz, 320 kbps, 2 ch | o`zbek
Audio # 2: AAC LC, 48 kHz, 352 kbps, 8 ch - | ingliz, original

Subtitrlar:

Subtitr # 1: [/ b]Inglizcha
Subtitr # 2: [/ b] Arab
Subtitr # 3: [/ b] Bengal tili
Subtitrlar # 4: [/ b]Xitoycha
Subtitr # 5: [/ b] Xitoycha
Subtitr # 6: [/ b]ingliz
Subtitr # 7: [/ b] Fors
Subtitr # 8: [/ b] Fin
Subtitr # 9: [/ b] frantsuz
Subtitr # 10: [/ b] Nemis
Subtitr # 11: [/ b] Indoneziya
Subtitr № 12: [/ b] Yapon
Subtitrlar # 13: [/ b] Malay
Subtitrlar # 14: [/ b] Norvegiya Bokmal
Subtitrlar # 15: [/ b] Portugalcha
Subtitrlar # 16: [/ b] Ispan
Subtitrlar # 17: [/ b] Vyetnam
-

Media Info

General
Unique ID : 28293323542590925653103730577345417234 (0x1549188D24F15C62AA8205FD77391012)
Complete name :How to Train your Dragon 2 2014 (1080p x265 10bit Joy).mkv
Format : Matroska
Format version : Version 4 / Version 2
File size : 1.52 GiB
Duration : 1 h 42 min
Overall bit rate : 2 129 kb/s
Encoded date : UTC 2019-04-04 09:58:31
Writing application : mkvmerge v32.0.0 ('Astral Progressions') 32-bit
Writing library : libebml v1.3.7 + libmatroska v1.5.0
Video
ID : 1
Format : HEVC
Format/Info : High Efficiency Video Coding
Format profile : Main 10@L4@Main
Codec ID : V_MPEGH/ISO/HEVC
Duration : 1 h 41 min
Bit rate : 1 439 kb/s
Width : 1 920 pixels
Height : 816 pixels
Display aspect ratio : 2.35:1
Frame rate mode : Constant
Frame rate : 23.976 (24000/1001) FPS
Original frame rate : 23.976 (23976/1000) FPS
Color space : YUV
Chroma subsampling : 4:2:0
Bit depth : 10 bits
Bits/(Pixel*Frame) : 0.038
Stream size : 1.02 GiB (67%)
Writing library : x265 1.7+2-d7b100e51e82:[Windows][GCC 4.8.2][64 bit] 16bpp
Encoding settings : wpp / ctu=64 / min-cu-size=8 / max-tu-size=32 / tu-intra-depth=1 / tu-inter-depth=1 / me=1 / subme=2 / merange=57 / no-rect / no-amp / max-merge=2 / temporal-mvp / no-early-skip / rdpenalty=0 / no-tskip / no-tskip-fast / strong-intra-smoothing / no-lossless / no-cu-lossless / no-constrained-intra / no-fast-intra / open-gop / no-temporal-layers / interlace=0 / keyint=250 / min-keyint=23 / scenecut=40 / rc-lookahead=20 / lookahead-slices=0 / bframes=4 / bframe-bias=0 / b-adapt=2 / ref=3 / weightp / no-weightb / aq-mode=1 / aq-strength=1.00 / cbqpoffs=0 / crqpoffs=0 / rd=3 / psy-rd=0.30 / rdoq-level=0 / psy-rdoq=0.00 / signhide / deblock / sao / no-sao-non-deblock / b-pyramid / cutree / rc=2 / pass / bitrate=1438 / qcomp=0.60 / qpmin=0 / qpmax=51 / qpstep=4 / cplxblur=20.0 / qblur=0.5 / ipratio=1.40 / pbratio=1.30
Default : Yes
Forced : No
Audio #1
ID : 2
Format : MPEG Audio
Format version : Version 1
Format profile : Layer 3
Format settings : Joint stereo
Codec ID : A_MPEG/L3
Codec ID/Hint : MP3
Duration : 1 h 41 min
Bit rate mode : Constant
Bit rate : 320 kb/s
Channel(s) : 2 channels
Sampling rate : 44.1 kHz
Frame rate : 38.281 FPS (1152 SPF)
Compression mode : Lossy
Stream size : 233 MiB (15%)
Writing library : LAME3.99r
Encoding settings : -m j -V 4 -q 3 -lowpass 20.5
Default : Yes
Forced : No
Audio #2
ID : 3
Format : AAC
Format/Info : Advanced Audio Codec
Format profile : LC
Codec ID : A_AAC-2
Duration : 1 h 41 min
Bit rate : 353 kb/s
Channel(s) : 8 channels
Channel positions : Front: L C R, Side: L R, Back: L R, LFE
Sampling rate : 48.0 kHz
Frame rate : 46.875 FPS (1024 SPF)
Compression mode : Lossy
Delay relative to video : 9 ms
Stream size : 260 MiB (17%)
Title : V2
Language : English
Default : No
Forced : No
Text #1
ID : 4
Format : PGS
Muxing mode : zlib
Codec ID : S_HDMV/PGS
Codec ID/Info : Picture based subtitle format used on BDs/HD-DVDs
Duration : 1 h 31 min
Bit rate : 36.1 kb/s
Count of elements : 2288
Stream size : 23.5 MiB (2%)
Language : English
Default : No
Forced : No
Text #2
ID : 5
Format : UTF-8
Codec ID : S_TEXT/UTF8
Codec ID/Info : UTF-8 Plain Text
Duration : 1 h 31 min
Bit rate : 72 b/s
Count of elements : 1048
Stream size : 48.3 KiB (0%)
Language : Arabic
Default : No
Forced : No
Text #3
ID : 6
Format : UTF-8
Codec ID : S_TEXT/UTF8
Codec ID/Info : UTF-8 Plain Text
Duration : 1 h 41 min
Bit rate : 126 b/s
Count of elements : 1402
Stream size : 94.3 KiB (0%)
Language : Bengali
Default : No
Forced : No
Text #4
ID : 7
Format : UTF-8
Codec ID : S_TEXT/UTF8
Codec ID/Info : UTF-8 Plain Text
Duration : 1 h 40 min
Bit rate : 38 b/s
Count of elements : 1134
Stream size : 28.1 KiB (0%)
Language : Portuguese
Default : No
Forced : No
Text #5
ID : 8
Format : ASS
Codec ID : S_TEXT/ASS
Codec ID/Info : Advanced Sub Station Alpha
Duration : 1 h 31 min
Bit rate : 173 b/s
Count of elements : 2017
Compression mode : Lossless
Stream size : 116 KiB (0%)
Title : Big Code
Language : Chinese
Default : No
Forced : No
Text #6
ID : 9
Format : UTF-8
Codec ID : S_TEXT/UTF8
Codec ID/Info : UTF-8 Plain Text
Duration : 1 h 31 min
Bit rate : 50 b/s
Count of elements : 990
Stream size : 33.7 KiB (0%)
Language : English
Default : No
Forced : No
Text #7
ID : 10
Format : UTF-8
Codec ID : S_TEXT/UTF8
Codec ID/Info : UTF-8 Plain Text
Duration : 1 h 32 min
Bit rate : 81 b/s
Count of elements : 1159
Stream size : 54.7 KiB (0%)
Language : Persian
Default : No
Forced : No
Text #8
ID : 11
Format : UTF-8
Codec ID : S_TEXT/UTF8
Codec ID/Info : UTF-8 Plain Text
Duration : 1 h 40 min
Bit rate : 39 b/s
Count of elements : 1139
Stream size : 29.0 KiB (0%)
Language : Finnish
Default : No
Forced : No
Text #9
ID : 12
Format : UTF-8
Codec ID : S_TEXT/UTF8
Codec ID/Info : UTF-8 Plain Text
Duration : 1 h 40 min
Bit rate : 42 b/s
Count of elements : 1064
Stream size : 31.2 KiB (0%)
Language : French
Default : No
Forced : No
Text #10
ID : 13
Format : UTF-8
Codec ID : S_TEXT/UTF8
Codec ID/Info : UTF-8 Plain Text
Duration : 1 h 31 min
Bit rate : 48 b/s
Count of elements : 1145
Stream size : 32.5 KiB (0%)
Language : German
Default : No
Forced : No
Text #11
ID : 14
Format : UTF-8
Codec ID : S_TEXT/UTF8
Codec ID/Info : UTF-8 Plain Text
Duration : 1 h 32 min
Bit rate : 100 b/s
Count of elements : 1182
Stream size : 68.3 KiB (0%)
Language : Indonesian
Default : No
Forced : No
Text #12
ID : 15
Format : UTF-8
Codec ID : S_TEXT/UTF8
Codec ID/Info : UTF-8 Plain Text
Duration : 1 h 31 min
Bit rate : 44 b/s
Count of elements : 1121
Stream size : 29.9 KiB (0%)
Language : Japanese
Default : No
Forced : No
Text #13
ID : 16
Format : UTF-8
Codec ID : S_TEXT/UTF8
Codec ID/Info : UTF-8 Plain Text
Duration : 1 h 31 min
Bit rate : 98 b/s
Count of elements : 1146
Stream size : 66.3 KiB (0%)
Language : Malay
Default : No
Forced : No
Text #14
ID : 17
Format : UTF-8
Codec ID : S_TEXT/UTF8
Codec ID/Info : UTF-8 Plain Text
Duration : 1 h 40 min
Bit rate : 41 b/s
Count of elements : 1146
Stream size : 30.5 KiB (0%)
Language : Norwegian Bokmal
Default : No
Forced : No
Text #15
ID : 18
Format : UTF-8
Codec ID : S_TEXT/UTF8
Codec ID/Info : UTF-8 Plain Text
Duration : 1 h 40 min
Bit rate : 47 b/s
Count of elements : 1146
Stream size : 35.1 KiB (0%)
Language : Portuguese
Default : No
Forced : No
Text #16
ID : 19
Format : UTF-8
Codec ID : S_TEXT/UTF8
Codec ID/Info : UTF-8 Plain Text
Duration : 1 h 31 min
Bit rate : 48 b/s
Count of elements : 1089
Stream size : 32.3 KiB (0%)
Language : Spanish
Default : No
Forced : No
Text #17
ID : 20
Format : UTF-8
Codec ID : S_TEXT/UTF8
Codec ID/Info : UTF-8 Plain Text
Duration : 1 h 41 min
Bit rate : 63 b/s
Count of elements : 1173
Stream size : 47.8 KiB (0%)
Language : Vietnamese
Default : No
Forced : No
Menu
00:00:00.000 : en:00:00:00.000
00:03:27.999 : en:00:03:27.999
00:05:20.695 : en:00:05:20.695
00:07:46.007 : en:00:07:46.007
00:10:16.032 : en:00:10:16.032
00:13:16.337 : en:00:13:16.337
00:16:59.059 : en:00:16:59.059
00:20:01.700 : en:00:20:01.700
00:23:43.255 : en:00:23:43.255
00:27:14.466 : en:00:27:14.466
00:29:21.468 : en:00:29:21.468
00:33:41.936 : en:00:33:41.936
00:37:05.473 : en:00:37:05.473
00:39:06.969 : en:00:39:06.969
00:40:59.165 : en:00:40:59.165
00:45:03.992 : en:00:45:03.992
00:47:16.625 : en:00:47:16.625
00:51:51.525 : en:00:51:51.525
00:54:35.730 : en:00:54:35.730
00:56:15.997 : en:00:56:15.997
01:00:33.171 : en:01:00:33.171
01:04:28.781 : en:01:04:28.781
01:06:34.949 : en:01:06:34.949
01:09:44.138 : en:01:09:44.138
01:14:01.854 : en:01:14:01.854
01:18:35.127 : en:01:18:35.127
01:21:07.153 : en:01:21:07.153
01:22:55.053 : en:01:22:55.053
01:24:30.064 : en:01:24:30.064
01:28:04.654 : en:01:28:04.654
01:31:03.499 : en:01:31:03.499
01:32:21.994 : en:01:32:21.994
01:41:54.858 : en:01:41:54.858
LAVHALAR
.torrent yuklash

Yuqori tezlikda va bepul ko‘chirish!

Qanday yuklab olinadi? · Torrent nima o‘zi? · Reyting va cheklovlar

Profil ShX

dimab707

Jins:
Yigit
Staj:
7 oy 10 kun
Xabarlar:
20

Qayerdan: Toshkent

Taqiq:

Гап йук Рахмат, 1- сини хам иложиси борми

Mavzu yaratish 20-May-2019 15:24 (20 soat o‘tgach)

Iqitibos

Profil ShX

logan7272 ®

Jins:
Yigit
Staj:
1 yil 2 oy
Xabarlar:
73

Qayerdan: Namangan

Taqiq:

Harakat qilamiz

Mavzu yaratish 20-May-2019 15:42 (18 daqiqa o‘tgach)

Iqitibos

Profil ShX
Xabarlarni ko‘rsatish:    

Hozirgi vaqt: 17-Iyun 01:35

Vaqtlar farqi: UTC + 5



Siz mavzu yaratishingiz mumkin emas
Siz xabarlarga javob qaytarishingiz mumkin emas
Siz o‘z xabarlaringizni tahrirlashingiz mumkin emas
Siz o‘z xabarlaringizni o‘chirishingiz mumkin emas
Siz so‘rovlarda ovoz berishingiz mumkin emas
Siz xabalarga fayllarni biriktirishingiz mumkin emas
Siz fayllarni ko‘chirishingiz mumkin emas