˂
˃
Tarqatmalar statistikasi
Ko‘chirmoqdaman: [ 3 ]
 
     
 
 

XVII ®

Jins:
Yigit
Staj:
1 yil 2 oy
Xabarlar:
140

Qayerdan: Surkhandarya

Taqiq:

-|O`tikinchi dunyo | Наступит завтра или нет? | Kal Ho Naa Ho|- Chiqqan yili: 2003
Davlat: Hindiston
Janr: drama, melodramma, komediya
Davomiyligi: 03:07:36
Tarjima: Professional (Ko'p ovozli kadr ortidan)-Rejissyor: Nikhil Advani
Rollarda: Shohruhxon, Priti Zinta, Jaya Bachchan, Saif Alihan va boshqalar-Tavsif: Film 2003 yil bahorida Nyu-Yorkda bo'lib o'tadi. Naine Kapur uchun qish davom etadi. Qish qalbda, chunki otasining o'limidan beri uning butun hayoti oilaviy munosabatlarning abadiy tushunishiga tobe etildi. Qarindoshi va akasiga g'amxo'rlik qilib, onasi Jenniferga, buvisining darmonsiz tabiatiga yordam berish - bu uning hayotidir. Tomonlar, kulgili va hazilni bypass qiladi. U 23 yoshda, lekin yuragida allaqachon buvisi - jiddiy va zerikarli. Omon Matur - hayotidagi yangi narsa. Neinani yaxshi ko'rardi. Ammo u Xamanning optimistik va ishonchliligini yoqtirmaydi. Uning tabassumi Hamanning hayotining maqsadi bo'lib qoladi va shu sababli u Neina Rohitning do'stidan qizni uyg'otish uchun yordam so'raydi. Rohit Neinaga oshiq bo'lganini tushunadi. Hayotning yangi ranglar bilan o'ynaganligi ko'rinib turganda, bu ba'zi daqiqalar uchun oxirgi ekanligini tushunasiz. Ertaga keladimi yoki yo'qmi?
Qo'sh. ma'lumot: IMDB bo`yicha reyting: 8.0
Kinopoisk bo`yicha reyting: 8.35-Videoning sifati: BDRip
Video format: MKV
Video: AVC, 1280x544 (2.35), 24.000 fps, 4 226 Kbps (0.248 bit/pixel)
Audio: MP3 48000Hz stereo 224kbps |O`zbekcha|
Audio 2: AC-3, 48.0 KHz, 6 ch, 448 Kbps, CBR |Ruscha|
Audio 3: DTS ES, 48.0 KHz, 6 ch, 755 Kbps, CBR |Hindcha|
Subtitrlar: Inglizcha

Media Info

General
Unique ID : 228285418508861717341246660251925379206 (0xABBE2C1E4C6C8458B76991A1138C7886)
Complete name : Nastupit.zavtra.ili.net.2003.BDRip.mkv
Format : Matroska
Format version : Version 2
File size : 7.15 GiB
Duration : 3 h 7 min
Overall bit rate : 5 452 kb/s
Movie name : -= BwTorrents.Ru =- Exclusive !!! =-
Encoded date : UTC 2010-12-13 09:21:42
Writing application : mkvmerge v3.3.0 ('Language') built on Mar 24 2010 14:59:24
Writing library : libebml v0.8.0 + libmatroska v0.9.0
Video
ID : 1
Format : AVC
Format/Info : Advanced Video Codec
Format profile : High@L4.1
Format settings, CABAC : Yes
Format settings, ReFrames : 4 frames
Codec ID : V_MPEG4/ISO/AVC
Duration : 3 h 7 min
Bit rate : 4 226 kb/s
Width : 1 280 pixels
Height : 544 pixels
Display aspect ratio : 2.35:1
Frame rate mode : Constant
Frame rate : 24.000 FPS
Color space : YUV
Chroma subsampling : 4:2:0
Bit depth : 8 bits
Scan type : Progressive
Bits/(Pixel*Frame) : 0.253
Stream size : 5.41 GiB (76%)
Title : 720p @ BwTorrents.Ru
Writing library : x264 core 110 r1804 e89c4cf
Encoding settings : cabac=1 / ref=3 / deblock=1:0:0 / analyse=0x3:0x113 / me=hex / subme=7 / psy=1 / psy_rd=1.00:0.00 / mixed_ref=1 / me_range=16 / chroma_me=1 / trellis=1 / 8x8dct=1 / cqm=0 / deadzone=21,11 / fast_pskip=1 / chroma_qp_offset=-2 / threads=12 / sliced_threads=0 / nr=0 / decimate=1 / interlaced=0 / constrained_intra=0 / bframes=3 / b_pyramid=2 / b_adapt=1 / b_bias=0 / direct=1 / weightb=1 / open_gop=0 / weightp=2 / keyint=250 / keyint_min=23 / scenecut=40 / intra_refresh=0 / rc_lookahead=40 / rc=2pass / mbtree=1 / bitrate=4226 / ratetol=1.0 / qcomp=0.60 / qpmin=10 / qpmax=51 / qpstep=4 / cplxblur=20.0 / qblur=0.5 / ip_ratio=1.40 / aq=1:1.00
Language : Hindi
Default : Yes
Forced : No
Audio #1
ID : 2
Format : AC-3
Format/Info : Audio Coding 3
Format settings, Endianness : Big
Codec ID : A_AC3
Duration : 3 h 7 min
Bit rate mode : Constant
Bit rate : 448 kb/s
Channel(s) : 6 channels
Channel positions : Front: L C R, Side: L R, LFE
Sampling rate : 48.0 kHz
Frame rate : 31.250 FPS (1536 spf)
Bit depth : 16 bits
Compression mode : Lossy
Stream size : 601 MiB (8%)
Title : DD AC3 5.1 @ 448 Kbps
Language : Russian
Service kind : Complete Main
Default : Yes
Forced : No
Audio #2
ID : 3
Format : DTS
Format/Info : Digital Theater Systems
Format profile : ES Matrix / Core
Mode : 16
Format settings, Endianness : Big
Codec ID : A_DTS
Duration : 3 h 7 min
Bit rate mode : Constant
Bit rate : 768 kb/s
Channel(s) : 7 channels / 6 channels
Channel positions : Front: L C R, Side: L R, Back: C, LFE / Front: L C R, Side: L R, LFE
Sampling rate : 48.0 kHz
Frame rate : 93.750 FPS (512 spf)
Bit depth : 16 bits
Compression mode : Lossy
Stream size : 1.01 GiB (14%)
Language : Hindi
Default : No
Forced : No
Text
ID : 4
Format : VobSub
Muxing mode : zlib
Codec ID : S_VOBSUB
Codec ID/Info : Picture based subtitle format used on DVDs
Language : English
Default : No
Forced : No
Menu
00:00:00.000 : en:00:00:00.000
00:03:39.958 : en:00:03:39.958
00:09:32.625 : en:00:09:32.625
00:13:01.000 : en:00:13:01.000
00:18:56.958 : en:00:18:56.958
00:26:41.833 : en:00:26:41.833
00:32:24.333 : en:00:32:24.333
00:45:16.708 : en:00:45:16.708
00:53:50.625 : en:00:53:50.625
00:59:10.792 : en:00:59:10.792
01:07:51.750 : en:01:07:51.750
01:15:37.917 : en:01:15:37.917
01:20:43.917 : en:01:20:43.917
01:32:43.000 : en:01:32:43.000
01:38:21.750 : en:01:38:21.750
01:51:27.375 : en:01:51:27.375
02:02:40.000 : en:02:02:40.000
02:07:57.458 : en:02:07:57.458
02:16:38.625 : en:02:16:38.625
02:22:07.083 : en:02:22:07.083
02:31:51.375 : en:02:31:51.375
02:38:14.375 : en:02:38:14.375
02:50:20.000 : en:02:50:20.000
02:56:27.000 : en:02:56:27.000

Lavhalar

.torrent yuklash

Yuqori tezlikda va bepul ko‘chirish!

Qanday yuklab olinadi? · Torrent nima o‘zi? · Reyting va cheklovlar

Profil ShX
Xabarlarni ko‘rsatish:    

Hozirgi vaqt: 17-Iyun 01:36

Vaqtlar farqi: UTC + 5



Siz mavzu yaratishingiz mumkin emas
Siz xabarlarga javob qaytarishingiz mumkin emas
Siz o‘z xabarlaringizni tahrirlashingiz mumkin emas
Siz o‘z xabarlaringizni o‘chirishingiz mumkin emas
Siz so‘rovlarda ovoz berishingiz mumkin emas
Siz xabalarga fayllarni biriktirishingiz mumkin emas
Siz fayllarni ko‘chirishingiz mumkin emas