˂
˃
Tarqatmalar statistikasi
Ko‘chirmoqdaman: [ 10 ]
Ko‘chirib bo‘ldim: [ 50 ]
 
     
 
 

AxeL ®

Jins:
Yigit
Staj:
1 yil 3 oy
Xabarlar:
741

Qayerdan: Gronland, Norway

Taqiq:

Shazam / Шазам! / Shazam - Chiqqan yili: 2019
Davlat: AQSh
Janr: jangari, komediya, sarguzasht, fentezi
Davomiyligi: 02:10:17
Tarjima: Professional (Ko'p ovozli kadr ortidan) MY5
Tarjima 2: Professional (dublyaj qilingan) (Litsenziya Ingliz tilida)-Rejissyor: Devid F. Sendberg / Devid F. Sandberg-Rollarda: Mishel Bort, Greys Fulton, Marta Milans, Adam Brodi, Mark Strong, Esher Endjel, Jek Dilan Greyzer, Migan Gud, Zakari Livay,...-Tavsif: Qadimgi sehrgar endi yovuzlik kuchlariga qarshi kurashishga qodir emas. Endi vorisni topish vaqti keldi. Sehrgarni tanlash 14 yoshli Billy Batsonga tushdi. O'smirdan talab qilinadigan barcha narsa-qadimgi sehrgar-Shazam nomini talaffuz qilish va yigit darhol super qahramonga va kattalarga aylanadi. Yangi qobiliyatlardan boshlab, odam tomni yiqitadi. Ularning eng yaxshi do'sti bilan birgalikda ular yangi ko'nikmalarni sinab ko'rishadi, ular bilan engish oson emas. Ammo qudratli yomon odam doktor Thaddeus Siwana bilan uchrashgandan so'ng, Billy tasodifan super kuchlar bilan ta'minlanganligini tushunadi. U dunyoni yovuzlikdan qutqarishi kerak...-Sifat: WEBRip 720p HEVC
Video format: MKV
Video: HVC1 1280x536 30fps 810 Kbps
Audio: MP3 44100Hz stereo 128kbps Ingliz tilida
Audio 2: MP3 44100Hz stereo 192kbps O'zbek tilida-

Media Info

General
Unique ID                      : 25207904136452627740258765574866964378 (0x12F6DDA13680E27E11A5499EFCFB8F9A)
Format                         : Matroska
Format version                 : Version 4 / Version 2
File size                      : 984 MiB
Duration                       : 2h 10mn
Overall bit rate               : 1 056 Kbps
Encoded date                   : UTC 2019-05-27 06:13:46
Writing application            : mkvmerge v22.0.0 ('At The End Of The World') 64-bit
Writing library                : libebml v1.3.5 + libmatroska v1.4.8
Video
ID                             : 1
Format                         : HEVC
Format/Info                    : High Efficiency Video Coding
Format profile                 : Main@L3.1@Main
Codec ID                       : V_MPEGH/ISO/HEVC
Duration                       : 2h 10mn
Bit rate                       : 810 Kbps
Width                          : 1 280 pixels
Height                         : 536 pixels
Display aspect ratio           : 2.40:1
Frame rate mode                : Constant
Frame rate                     : 30.000 fps
Color space                    : YUV
Chroma subsampling             : 4:2:0
Bit depth                      : 8 bits
Bits/(Pixel*Frame)             : 0.039
Stream size                    : 755 MiB (77%)
Default                        : Yes
Forced                         : No
Audio #1
ID                             : 2
Format                         : AAC
Format/Info                    : Advanced Audio Codec
Format profile                 : HE-AAC / LC
Codec ID                       : A_AAC
Duration                       : 2h 10mn
Bit rate                       : 52.0 Kbps
Channel(s)                     : 2 channels
Channel positions              : Front: L R
Sampling rate                  : 48.0 KHz / 24.0 KHz
Frame rate                     : 23.438 fps (1024 spf)
Compression mode               : Lossy
Delay relative to video        : 29ms
Stream size                    : 48.5 MiB (5%)
Language                       : English
Default                        : Yes
Forced                         : No
Audio #2
ID                             : 3
Format                         : MPEG Audio
Format version                 : Version 1
Format profile                 : Layer 3
Mode                           : Joint stereo
Mode extension                 : MS Stereo
Codec ID                       : A_MPEG/L3
Codec ID/Hint                  : MP3
Duration                       : 2h 10mn
Bit rate mode                  : Constant
Bit rate                       : 192 Kbps
Channel(s)                     : 2 channels
Sampling rate                  : 44.1 KHz
Frame rate                     : 38.281 fps (1152 spf)
Compression mode               : Lossy
Stream size                    : 179 MiB (18%)
Title                          : O'zbek tilida (AxeL)
Writing library                : LAME3.97
Language                       : Uzbek
Default                        : No
Forced                         : No

.torrent yuklash

Yuqori tezlikda va bepul ko‘chirish!

Qanday yuklab olinadi? · Torrent nima o‘zi? · Reyting va cheklovlar



So‘ngi marta tahrirlandi: AxeL (2019-05-27 22:17), Jami tahrirlangan 2 marta
Profil ShX

N.U.R.I.K.B.E.K

Jins:
Yigit
Staj:
1 yil 7 oy
Xabarlar:
481

Qayerdan: Jizzax. Paxtakor

Taqiq:

HEVCni axvolini qarelar.

Mavzu yaratish 27-May-2019 21:58 (10 soat o‘tgach)

Iqitibos

Profil ShX

AxeL ®

Jins:
Yigit
Staj:
1 yil 3 oy
Xabarlar:
741

Qayerdan: Gronland, Norway

Taqiq:

N.U.R.I.K.B.E.K, Unaqa qilib, foydalanuvchilarni bezdirgandan ko'ra, podderjka qilsangiz bo'lmaydimi?) har holda reklama yo'q)) sifati unchalik ham yomon emas, skrinshot olganda shunday ko'rinsa, videoda hammasi aniq tiniq ko'rinadi...hudo holasa sifatliligini ham qilamiz

Mavzu yaratish 27-May-2019 22:38 (40 daqiqa o‘tgach)

Iqitibos

Profil ShX

N.U.R.I.K.B.E.K

Jins:
Yigit
Staj:
1 yil 7 oy
Xabarlar:
481

Qayerdan: Jizzax. Paxtakor

Taqiq:

AxeL, padeshkaga tvm yonmadi 3-kun xozr yondi bir amalab yoqvoldim, shazamni taxlay desam taxlabo'psiz.

Mavzu yaratish 27-May-2019 23:22 (44 daqiqa o‘tgach)

Iqitibos

Profil ShX

AxeL ®

Jins:
Yigit
Staj:
1 yil 3 oy
Xabarlar:
741

Qayerdan: Gronland, Norway

Taqiq:

N.U.R.I.K.B.E.K, agar norozi bo'layotgan bo'lsangiz men o'chirib tashlashim mumkin), biz bir jamoa bo'lib xarakat qilishimiz kerak))

Mavzu yaratish 27-May-2019 23:41 (18 daqiqa o‘tgach)

Iqitibos

Profil ShX

Striker

Jins:
Yigit
Staj:
1 yil 10 oy
Xabarlar:
54
Taqiq:

8289N.U.R.I.K.B.E.K, agar norozi bo'layotgan bo'lsangiz men o'chirib tashlashim mumkin), biz bir jamoa bo'lib xarakat qilishimiz kerak))
To'g'ri biz bir jamoa bo'lib harakat qilishimiz kerak

Mavzu yaratish 28-May-2019 00:24 (43 daqiqa o‘tgach)

Iqitibos

Profil ShX

Lock

Jins:
Yigit
Staj:
8 oy 18 kun
Xabarlar:
41

Qayerdan: Namangan

Taqiq:

Hapa bo'manglar kino ko'p hammangizga yetadi :)

Mavzu yaratish 28-May-2019 08:16 (7 soat o‘tgach)

Iqitibos

Profil ShX

Soft-Release

Jins:
Yigit
Staj:
1 yil 3 oy
Xabarlar:
775

Qayerdan: Kattakurgan

Taqiq:

8291Hapa bo'manglar kino ko'p hammangizga yetadi :)
Lock, Ha Hali Kapitan Marvel Bor!

Mavzu yaratish 28-May-2019 08:39 (22 daqiqa o‘tgach)

Iqitibos

Profil ShX

N.U.R.I.K.B.E.K

Jins:
Yigit
Staj:
1 yil 7 oy
Xabarlar:
481

Qayerdan: Jizzax. Paxtakor

Taqiq:

Popravilis nemnoga

MRLGdan izoh


Rusiyzabon trekerda o'zbekchada, o'zbekcha trekerda ruschada yozish ekanda...Hammasini o'z o'rnida ishlatishni maslahat beraman.

Mavzu yaratish 28-May-2019 12:02 (3 soat o‘tgach)

Iqitibos

Profil ShX

N.U.R.I.K.B.E.K

Jins:
Yigit
Staj:
1 yil 7 oy
Xabarlar:
481

Qayerdan: Jizzax. Paxtakor

Taqiq:

xarsoxadan xar tildan bir shingil )) ab

Mavzu yaratish 28-May-2019 23:25 (11 soat o‘tgach)

Iqitibos

Profil ShX

AxeL ®

Jins:
Yigit
Staj:
1 yil 3 oy
Xabarlar:
741

Qayerdan: Gronland, Norway

Taqiq:

N.U.R.I.K.B.E.K, siz moderatorsiz o'zingizga yarashmaydigan ishlar qilmoqdasiz, o'zingizni yig'ishtirib olishni maslahat beraman!

Mavzu yaratish 28-May-2019 23:55 (30 daqiqa o‘tgach)

Iqitibos

Profil ShX

N.U.R.I.K.B.E.K

Jins:
Yigit
Staj:
1 yil 7 oy
Xabarlar:
481

Qayerdan: Jizzax. Paxtakor

Taqiq:

AxeL, endi undaymas ))

Mavzu yaratish 29-May-2019 14:06 (14 soat o‘tgach)

Iqitibos

Profil ShX
Xabarlarni ko‘rsatish:    

Hozirgi vaqt: 27-Iyun 09:02

Vaqtlar farqi: UTC + 5



Siz mavzu yaratishingiz mumkin emas
Siz xabarlarga javob qaytarishingiz mumkin emas
Siz o‘z xabarlaringizni tahrirlashingiz mumkin emas
Siz o‘z xabarlaringizni o‘chirishingiz mumkin emas
Siz so‘rovlarda ovoz berishingiz mumkin emas
Siz xabalarga fayllarni biriktirishingiz mumkin emas
Siz fayllarni ko‘chirishingiz mumkin emas