˂
˃
Tarqatmalar statistikasi
Ko‘chirmoqdaman: [ 10 ]
Ko‘chirib bo‘ldim: [ 31 ]
 
     
 
 

MRLG ®

Jins:
Yigit
Staj:
1 yil 10 oy
Xabarlar:
606
Taqiq:

Parker / Паркер / Parker- Chiqqan yili: 2012
Davlat: AQSH
Janr: jangari, triller, kriminal
Davomiyligi: 01:58:40
Tarjima: Professional Ko'p ovozli (O'zbek) + Litsenziya (Rus)
Subtitrlar: mavjud
Treyler: https://mover.uz/watch/HsnAXckj/-Rejissyor: Teylor Xekford / Taylor Hackford
Rollarda: Djeyson Steytem, Djennifer Lopez, Maykl Chiklis, Nik Nolti, Emma But, Mika Xauptman, Uyendell Pirs, Klifton Kollinz ml., Deniel Bernxard, Bobbi Kannavale, Petti LyuPon, Karlos Karrasko-Tavsif: Bosh qahramon - o'z ahloqiy kodeksi bilan ish tutadigan, professional o'g'ri, lekin uni yo'lini kesib o'tadigan har qanday odamni osongina boshqa dunyoga yuborishi mumkin.- -Sifat: BDRip-AVC
Format: MKV
Video: AVC, 984x408, ~1803 kbps, 23,976 fps
Audio №1: MP3, 48 kHz, 128 kbps, 2 ch | UZB
Audio №2: AC3, 48 kHz, 448 kbps, 6 ch | RUS
Audio №3: AC3, 48 kHz, 384 kbps, 6 ch | ENG-

MediaInfo

General
Unique ID : 239929832805048019893604148075238810139 (0xB480CE1189B122A685EB58755E0C621B)
Complete name : D:\Кино\Дубляж фильмлар\HD Films Collection\Parker.2013.D.BDRip.x264.-MRLG.mkv
Format : Matroska
Format version : Version 2
File size : 2.29 GiB
Duration : 1 h 58 min
Overall bit rate : 2 763 kb/s
Movie name : MRLG
Encoded date : UTC 2018-12-24 11:12:39
Writing application : mkvmerge v7.8.0 ('River Man') 32bit built on Apr 3 2015 12:11:22
Writing library : libebml v1.3.1 + libmatroska v1.4.2
Video
ID : 1
Format : AVC
Format/Info : Advanced Video Codec
Format profile : High@L4.1
Format settings, CABAC : Yes
Format settings, ReFrames : 12 frames
Codec ID : V_MPEG4/ISO/AVC
Duration : 1 h 58 min
Bit rate : 1 803 kb/s
Width : 984 pixels
Height : 408 pixels
Display aspect ratio : 2.40:1
Frame rate mode : Constant
Frame rate : 23.976 FPS
Color space : YUV
Chroma subsampling : 4:2:0
Bit depth : 8 bits
Scan type : Progressive
Bits/(Pixel*Frame) : 0.187
Stream size : 1.45 GiB (63%)
Title : Parker
Writing library : x264 core 125 r2208 d9d2288
Encoding settings : cabac=1 / ref=12 / deblock=1:-2:-1 / analyse=0x3:0x133 / me=umh / subme=11 / psy=1 / psy_rd=1.05:0.00 / mixed_ref=1 / me_range=32 / chroma_me=1 / trellis=2 / 8x8dct=1 / cqm=0 / deadzone=21,11 / fast_pskip=0 / chroma_qp_offset=-2 / threads=9 / lookahead_threads=1 / sliced_threads=0 / nr=0 / decimate=1 / interlaced=0 / bluray_compat=0 / constrained_intra=0 / bframes=13 / b_pyramid=2 / b_adapt=2 / b_bias=0 / direct=3 / weightb=1 / open_gop=0 / weightp=2 / keyint=240 / keyint_min=23 / scenecut=40 / intra_refresh=0 / rc_lookahead=100 / rc=2pass / mbtree=1 / bitrate=1803 / ratetol=1.0 / qcomp=0.70 / qpmin=0 / qpmax=69 / qpstep=4 / cplxblur=20.0 / qblur=0.5 / vbv_maxrate=20000 / vbv_bufsize=20000 / nal_hrd=none / ip_ratio=1.35 / aq=2:0.80
Language : English
Default : Yes
Forced : No
Audio #1
ID : 2
Format : MPEG Audio
Format version : Version 1
Format profile : Layer 3
Mode : Joint stereo
Mode extension : MS Stereo
Codec ID : A_MPEG/L3
Codec ID/Hint : MP3
Duration : 1 h 58 min
Bit rate mode : Constant
Bit rate : 128 kb/s
Channel(s) : 2 channels
Sampling rate : 48.0 kHz
Compression mode : Lossy
Stream size : 109 MiB (5%)
Title : Uzb.Dub (MRLG)
Writing library : LAME3.100Є
Language : Uzbek
Default : Yes
Forced : Yes
Audio #2
ID : 3
Format : AC-3
Format/Info : Audio Coding 3
Mode extension : CM (complete main)
Format settings, Endianness : Big
Codec ID : A_AC3
Duration : 1 h 58 min
Bit rate mode : Constant
Bit rate : 448 kb/s
Channel(s) : 6 channels
Channel positions : Front: L C R, Side: L R, LFE
Sampling rate : 48.0 kHz
Frame rate : 31.250 FPS (1536 spf)
Compression mode : Lossy
Stream size : 380 MiB (16%)
Title : Dub | DD 5.1 @ 448 kbps
Language : Russian
Default : No
Forced : Yes
Audio #3
ID : 4
Format : AC-3
Format/Info : Audio Coding 3
Mode extension : CM (complete main)
Format settings, Endianness : Big
Codec ID : A_AC3
Duration : 1 h 58 min
Bit rate mode : Constant
Bit rate : 384 kb/s
Channel(s) : 6 channels
Channel positions : Front: L C R, Side: L R, LFE
Sampling rate : 48.0 kHz
Frame rate : 31.250 FPS (1536 spf)
Compression mode : Lossy
Stream size : 326 MiB (14%)
Title : Original | DD 5.1 @ 384 kbps
Language : English
Default : No
Forced : No
Text #1
ID : 5
Format : UTF-8
Codec ID : S_TEXT/UTF8
Codec ID/Info : UTF-8 Plain Text
Title : Voronine
Language : Russian
Default : No
Forced : No
Text #2
ID : 6
Format : UTF-8
Codec ID : S_TEXT/UTF8
Codec ID/Info : UTF-8 Plain Text
Language : English
Default : No
Forced : No
Menu
00:00:00.000 : en:00:00:00.000
00:06:14.708 : en:00:06:14.708
00:14:00.923 : en:00:14:00.923
00:19:29.585 : en:00:19:29.585
00:26:25.000 : en:00:26:25.000
00:31:46.488 : en:00:31:46.488
00:38:26.804 : en:00:38:26.804
00:42:27.920 : en:00:42:27.920
00:49:46.275 : en:00:49:46.275
00:55:07.638 : en:00:55:07.638
01:01:11.376 : en:01:01:11.376
01:06:21.561 : en:01:06:21.561
01:11:51.349 : en:01:11:51.349
01:22:34.533 : en:01:22:34.533
01:30:46.274 : en:01:30:46.274
01:38:12.220 : en:01:38:12.220
.torrent yuklash

Yuqori tezlikda va bepul ko‘chirish!

Qanday yuklab olinadi? · Torrent nima o‘zi? · Reyting va cheklovlar

Profil ShX
Xabarlarni ko‘rsatish:    

Hozirgi vaqt: 27-Iyun 10:10

Vaqtlar farqi: UTC + 5



Siz mavzu yaratishingiz mumkin emas
Siz xabarlarga javob qaytarishingiz mumkin emas
Siz o‘z xabarlaringizni tahrirlashingiz mumkin emas
Siz o‘z xabarlaringizni o‘chirishingiz mumkin emas
Siz so‘rovlarda ovoz berishingiz mumkin emas
Siz xabalarga fayllarni biriktirishingiz mumkin emas
Siz fayllarni ko‘chirishingiz mumkin emas