˂
˃
Tarqatmalar statistikasi
Ko‘chirmoqdaman: [ 6 ]
Ko‘chirib bo‘ldim: [ 8 ]
 
     
 
 

Striker ®

Jins:
Yigit
Staj:
1 yil 9 oy
Xabarlar:
53
Taqiq:


DIZAYN SHOU 2018
Chiqqan yili: 2018
Davlat: O'zbekiston
Janr: Kulguli, Konsert
Davomiyligi: 02:20:23
Rejissiyor: Dilshod Musabekov-Tavsif: Dizayn jamoasining 2018 - yil 4 - dekabrdan 12 - dekabrgacha Xalqlar do'stligi saroyida bergan navbatdagi kulgiga boy konsert dasturi. Jamoa yigitlari bu yil ham o'z muhlislariga betakror qiziqarli hajviyalarni tayyorlaganlar. Xar bir chiqishlari yumorga boy desak mubolag'a bo'lmaydi.-Sifat: WEBRip 720p
Format: MP4
Video kodek: MPEG-4
Audio kodek: AAC
Video: MPEG4 Video (H264) 1280x720 29.97fps 1932kbps
Audio: AAC 44100Hz stereo 127kbps

MediaInfo

General
Complete name : D:\TORRENTS\Dizayn jamoasi (Dizayn Shou 2018) Konsert Dasturi (HD).mp4
Format : MPEG-4
Format profile : Base Media
Codec ID : isom (isom/iso2/avc1/mp41)
File size : 2.03 GiB
Duration : 2 h 20 min
Overall bit rate : 2 068 kb/s
Writing application : Lavf58.26.100
Video
ID : 1
Format : AVC
Format/Info : Advanced Video Codec
Format profile : Main@L3.1
Format settings : CABAC / 3 Ref Frames
Format settings, CABAC : Yes
Format settings, ReFrames : 3 frames
Codec ID : avc1
Codec ID/Info : Advanced Video Coding
Duration : 2 h 20 min
Bit rate : 1 932 kb/s
Width : 1 280 pixels
Height : 720 pixels
Display aspect ratio : 16:9
Frame rate mode : Constant
Frame rate : 29.970 (30000/1001) FPS
Color space : YUV
Chroma subsampling : 4:2:0
Bit depth : 8 bits
Scan type : Progressive
Bits/(Pixel*Frame) : 0.070
Stream size : 1.89 GiB (93%)
Title : ISO Media file produced by Google Inc. Created on: 05/31/2019.
Color range : Limited
Color primaries : BT.709
Transfer characteristics : BT.709
Matrix coefficients : BT.709
Codec configuration box : avcC
Audio
ID : 2
Format : AAC LC
Format/Info : Advanced Audio Codec Low Complexity
Codec ID : mp4a-40-2
Duration : 2 h 20 min
Bit rate mode : Constant
Bit rate : 128 kb/s
Channel(s) : 2 channels
Channel layout : L R
Sampling rate : 44.1 kHz
Frame rate : 43.066 FPS (1024 SPF)
Compression mode : Lossy
Stream size : 129 MiB (6%)
Title : ISO Media file produced by Google Inc. Created on: 05/31/2019.
Default : Yes
Alternate group : 1
.torrent yuklash

Yuqori tezlikda va bepul ko‘chirish!

Qanday yuklab olinadi? · Torrent nima o‘zi? · Reyting va cheklovlar

Profil ShX

MRLG

Jins:
Yigit
Staj:
1 yil 10 oy
Xabarlar:
603
Taqiq:

Torrent fayl yangilandi.

Mavzu yaratish 11-Iyun-2019 12:03 (9 kun o‘tgach)

Iqitibos

Profil ShX
Xabarlarni ko‘rsatish:    

Hozirgi vaqt: 17-Iyun 01:45

Vaqtlar farqi: UTC + 5



Siz mavzu yaratishingiz mumkin emas
Siz xabarlarga javob qaytarishingiz mumkin emas
Siz o‘z xabarlaringizni tahrirlashingiz mumkin emas
Siz o‘z xabarlaringizni o‘chirishingiz mumkin emas
Siz so‘rovlarda ovoz berishingiz mumkin emas
Siz xabalarga fayllarni biriktirishingiz mumkin emas
Siz fayllarni ko‘chirishingiz mumkin emas