˂
˃
Tarqatmalar statistikasi
Ko‘chiraman: [ 1 ]
Ko‘chirmoqdaman: [ 10 ]
Ko‘chirib bo‘ldim: [ 71 ]
 
     
 
 

MRLG ®

Jins:
Yigit
Staj:
1 yil 10 oy
Xabarlar:
603
Taqiq:


Kapitan Marvel
Капитан Марвел
Captain Marvel

Chiqqan yili: 2019
Davlat: AQSH
Janr: Fantastika, jangari, sarguzasht
Davomiyligi: 02:03:42
Tarjima: Dublyaj qilingan {iTunes} + Professional ko'povozli {O'zbek} [Yoshlar]-Rejissiyor: Anna Boden / Anna Boden, Rayan Flek / Ryan Fleck
Rollarda: Bri Larson, Semyuel L. Djekson, Ben Mendelson, Djud Lou, Annett Bening, Lashana Linch, Klark Gregg, Ryun Temt, Djemma Chan, Alxenis Peres Soto
Tavsif: Harbiy-havo uchuvchisi Kerol Denvers o'zga sayyoralik dushmanlarning to'qnashuvidan so'ng super qobiliyatga ega bo'lib, yengilmas qahramonga aylanadi. Qahramon o'zining yangi qobiliyatini kuchli dushmanlarga qarshi ishlatishga to'g'ri keladi.- -Sifat: HDRip
Format: AVI
Video: XviD, 1302 Kbit/s, 720x304, 23.976fps
Audio #1: АС3, 6 ch, 384 Kbit/s iTunes
Audio #2: MP3, 2 ch, 128 Kbit/s Yoshlar

Media Info

General
Complete name                  : D:\Кино\Дубляж фильмлар\Kapitan Marvel (2019) HDRip.-[MRLG].avi
Format                         : AVI
Format/Info                    : Audio Video Interleave
File size                      : 1.58 GiB
Duration                       : 2 h 3 min
Overall bit rate               : 1 829 kb/s
Writing application            : VirtualDubMod 1.5.10.3 | www.virtualdub-fr.org || (build 2550/release)
Writing library                : VirtualDubMod build 2550/release
Video
ID                             : 0
Format                         : MPEG-4 Visual
Format profile                 : Advanced Simple@L5
Format settings                : BVOP1 / Custom Matrix
Format settings, BVOP          : 1
Format settings, QPel          : No
Format settings, GMC           : No warppoints
Format settings, Matrix        : Custom
Codec ID                       : XVID
Codec ID/Hint                  : XviD
Duration                       : 2 h 3 min
Bit rate                       : 1 303 kb/s
Width                          : 720 pixels
Height                         : 304 pixels
Display aspect ratio           : 2.35:1
Frame rate                     : 23.976 (24000/1001) FPS
Color space                    : YUV
Chroma subsampling             : 4:2:0
Bit depth                      : 8 bits
Scan type                      : Progressive
Compression mode               : Lossy
Bits/(Pixel*Frame)             : 0.248
Stream size                    : 1.13 GiB (71%)
Writing library                : XviD 73
Audio #1
ID                             : 1
Format                         : AC-3
Format/Info                    : Audio Coding 3
Commercial name                : Dolby Digital
Codec ID                       : 2000
Duration                       : 2 h 3 min
Bit rate mode                  : Constant
Bit rate                       : 384 kb/s
Channel(s)                     : 6 channels
Channel layout                 : L R C LFE Ls Rs
Sampling rate                  : 48.0 kHz
Frame rate                     : 31.250 FPS (1536 SPF)
Bit depth                      : 16 bits
Compression mode               : Lossy
Stream size                    : 340 MiB (21%)
Alignment                      : Split across interleaves
Interleave, duration           : 42  ms (1.00 video frame)
Interleave, preload duration   : 500  ms
Service kind                   : Complete Main
Audio #2
ID                             : 2
Format                         : MPEG Audio
Format version                 : Version 1
Format profile                 : Layer 3
Format settings                : Joint stereo / MS Stereo
Codec ID                       : 55
Codec ID/Hint                  : MP3
Duration                       : 2 h 3 min
Bit rate mode                  : Constant
Bit rate                       : 128 kb/s
Channel(s)                     : 2 channels
Sampling rate                  : 48.0 kHz
Frame rate                     : 41.667 FPS (1152 SPF)
Compression mode               : Lossy
Stream size                    : 113 MiB (7%)
Alignment                      : Aligned on interleaves
Interleave, duration           : 42  ms (1.00 video frame)
Interleave, preload duration   : 504  ms
Writing library                : LAME3.100
Encoding settings              : -m j -V 4 -q 2 -lowpass 17 -b 128
.torrent yuklash

Yuqori tezlikda va bepul ko‘chirish!

Qanday yuklab olinadi? · Torrent nima o‘zi? · Reyting va cheklovlar

Profil ShX

Vampire_1987

Jins:
Ko‘rsatilmagan
Staj:
1 yil 9 oy
Xabarlar:
125
Taqiq:

MRLG, Uzb Si Yoq Qu Faqat Rus Tilidagisi Bor

Mavzu yaratish 04-Iyun-2019 02:46 (1 kun 13 soat o‘tgach)

Iqitibos

Profil ShX

Evropa

Jins:
Ko‘rsatilmagan
Staj:
1 yil 2 oy
Xabarlar:
14
Taqiq:

Vampire_1987,
Audio #2
ID : 2
Format : MPEG Audio

Mavzu yaratish 04-Iyun-2019 05:49 (3 soat o‘tgach)

Iqitibos

Profil ShX
Xabarlarni ko‘rsatish:    

Hozirgi vaqt: 17-Iyun 02:17

Vaqtlar farqi: UTC + 5



Siz mavzu yaratishingiz mumkin emas
Siz xabarlarga javob qaytarishingiz mumkin emas
Siz o‘z xabarlaringizni tahrirlashingiz mumkin emas
Siz o‘z xabarlaringizni o‘chirishingiz mumkin emas
Siz so‘rovlarda ovoz berishingiz mumkin emas
Siz xabalarga fayllarni biriktirishingiz mumkin emas
Siz fayllarni ko‘chirishingiz mumkin emas