˂
˃
Tarqatmalar statistikasi
Ko‘chirmoqdaman: [ 1 ]
Ko‘chirib bo‘ldim: [ 43 ]
 
     
 
 

N.U.R.I.K.B.E.K ®

Jins:
Yigit
Staj:
1 yil 8 oy
Xabarlar:
494

Qayerdan: Jizzax. Paxtakor

Taqiq:

-Tungi Qochoq | Ночной беглец | Run All Night
--Chiqqan yili: 2015
Davlat: AQSH
Janr: Jangari, Triller, Drama, Jinoyat, Detektiv
Davomiyligi: 01:54:21
Tarjima 1: MY5 O'zbek Tilida
Tarjima 2: iTunes Rus Tili--Rejissyor: Haume Kolet Serra.--Rollarda: Liam Nison, Yuel Kinnaman, Jenezis Rodrigez, Boyd Holbruk, Vinsent D'Onofrio, Common, Ed Xarris, Holt Makkellani, Bryus MakGill, Bo Xapp.--Tavsif: Jimmy Colon-uning faoliyati sohasida juda professional. Bir marta u murakkab, bahsli masalalarni hal qildi, boshqacha aytganda, odamlarni o'ldirishda ishladi, ammo bularning hammasi o'tmishda qoldi. Endi qulay kresloda bir stakan viski bilan o'tirib, qahramon mahalliy mafiya bilan hamkorlik qilgan eski kunlarni unutishga harakat qilmoqda. Bandit boshlig'i Sean Mcguaer, Jimmi'nin eng yaxshi do'sti va uning shafqatsiz buyurtmalarini bajargan. Endi keksa qotil hech kimga muhtoj emas.
To'satdan kolonni eslab, unga yangi buyurtma yuboring. Jimmy hayratga tushdi, endi ob'ekt boshqa hech kim emas, balki o'z o'g'li edi. Kambag'al odamni qutqarish uchun faqat bir kecha bor. Yollanma odam o'zini qutqarish uchun xo'jayinning o'g'lini o'ldirishi kerak. Man mafiya tark qilmaydi va Maykl yashirish uchun harakat qiladi, deb tushunadi, shuning uchun uning avlodining ismi. Bu faqat maxfiy qotilning qasdkor dushmani — o'ttiz yil davomida uni ta'qib qilgan ayyor detektivga ma'lum bo'ladi.
Qadimgi qotil qochib ketishi kerak. Endi qaroqchilarning mahalliy, ammo unutilgan oilasini qutqarish qahramonning ustuvor maqsadiga aylanadi. Baxtsiz odamlar har tomondan ovni ochadilar. Colon, Nyu-Yorkning eng yaxshi izlovchilarini qidirishga yuborilganligini biladi. Shuning uchun, belgi, albatta, eski do'stini yo'q qilishga qaror qiladi, aks holda u va uning o'g'li bu vaziyatda omon qolmaydi.--Videoning sifati: BDRip 720p
Video format: MKV--Video: MPEG4 Video (H264) 1280x534 23.976fps 3 181 kb/s
Audio: MP3 48000Hz stereo 128kbps O'zbek Tili
Audio 2: AAC 48000Hz stereo Rus Tili--

Media Info

General
Format : Matroska
Format version : Version 4 / Version 2
File size : 2.81 GiB
Duration : 1 h 54 min
Overall bit rate : 3 520 kb/s
Encoded date : UTC 2019-06-21 12:09:42
Writing application : mkvmerge v15.0.0 ('Duel with the Devil') 64-bit
Writing library : libebml v1.3.5 + libmatroska v1.4.5
Video
ID : 1
Format : AVC
Format/Info : Advanced Video Codec
Format profile : High@L3.1
Format settings, CABAC : Yes
Format settings, RefFrames : 4 frames
Codec ID : V_MPEG4/ISO/AVC
Duration : 1 h 54 min
Bit rate : 3 181 kb/s
Width : 1 280 pixels
Height : 534 pixels
Display aspect ratio : 2.40:1
Frame rate mode : Constant
Frame rate : 23.976 (24000/1001) FPS
Color space : YUV
Chroma subsampling : 4:2:0
Bit depth : 8 bits
Scan type : Progressive
Bits/(Pixel*Frame) : 0.194
Stream size : 2.54 GiB (90%)
Writing library : x264 core 142 r2495 6a301b6
Language : English
Default : Yes
Forced : No
Color range : Limited
Color primaries : BT.709
Transfer characteristics : BT.709
Matrix coefficients : BT.709
Audio #1
ID : 2
Format : MPEG Audio
Format version : Version 1
Format profile : Layer 3
Mode : Joint stereo
Codec ID : A_MPEG/L3
Codec ID/Hint : MP3
Duration : 1 h 54 min
Bit rate mode : Constant
Bit rate : 128 kb/s
Channel(s) : 2 channels
Sampling rate : 48.0 kHz
Frame rate : 41.667 FPS (1152 SPF)
Compression mode : Lossy
Delay relative to video : -21 ms
Stream size : 105 MiB (4%)
Title : O'zbek Tili
Writing library : LAME3.99.5
Language : Uzbek
Default : Yes
Forced : No
Audio #2
ID : 3
Format : AAC
Format/Info : Advanced Audio Codec
Format profile : LC
Codec ID : A_AAC
Duration : 1 h 54 min
Bit rate : 208 kb/s
Channel(s) : 2 channels
Channel positions : Front: L R
Sampling rate : 48.0 kHz
Frame rate : 46.875 FPS (1024 SPF)
Compression mode : Lossy
Delay relative to video : -21 ms
Stream size : 170 MiB (6%)
Title : Rus Tili
Language : Russian
Default : No
Forced : No
LAVHALAR
.torrent yuklash

Yuqori tezlikda va bepul ko‘chirish!

Qanday yuklab olinadi? · Torrent nima o‘zi? · Reyting va cheklovlar

Profil ShX
Xabarlarni ko‘rsatish:    

Hozirgi vaqt: 23-Iyul 04:43

Vaqtlar farqi: UTC + 5



Siz mavzu yaratishingiz mumkin emas
Siz xabarlarga javob qaytarishingiz mumkin emas
Siz o‘z xabarlaringizni tahrirlashingiz mumkin emas
Siz o‘z xabarlaringizni o‘chirishingiz mumkin emas
Siz so‘rovlarda ovoz berishingiz mumkin emas
Siz xabalarga fayllarni biriktirishingiz mumkin emas
Siz fayllarni ko‘chirishingiz mumkin emas