˂
˃
Tarqatmalar statistikasi
Ko‘chirmoqdaman: [ 2 ]
Ko‘chirib bo‘ldim: [ 31 ]
 
     
 
 

N.U.R.I.K.B.E.K ®

Jins:
Yigit
Staj:
1 yil 8 oy
Xabarlar:
494

Qayerdan: Jizzax. Paxtakor

Taqiq:

-G'aroyib Hiyobon | Волшебный Парк Джун | Wonder Park
--Chiqqan yili: 2019
Davlat: Ispaniya, AQSH
Janr: Multfilm, Hayoliy, Sarguzasht, Komediya, Oilaviy.
Davomiyligi: 01:25:16
Tarjima 1: MY5 O'zbek Tilida
Tarjima 2: Ko'p Ovozli Rus Tili--Rejissyor: Dylan Braun.--Rollarni ovozlashtirganlar: Sofiya Mali, Jennifer Garner, Ken Hudson Kempbell, Kenan Tompson, Mila Kunis, Jon Oliver, Ken Jong, Norbert Leo Batz, Metyu Broderick, Brianna Denski.--Tavsif: Bir kuni fantazerka Jun o'zining ixtiro qilgan ajoyib o'yin parki haqiqiy ekanini tushunadi! Ammo uning mavjudligi xavf ostida va Jun o'z orzularini qutqarish rejasiga muhtoj. Uning yangi do'stlari qizga yordam beradi - parkning sehrli hayvonlari.--Videoning sifati: HDRip
Video format: MKV--Video: Xvid 720x304 23.976fps 2 049 kb/s
Audio: MP3 48000Hz stereo 128kbps O'zbek Tili
Audio 2: Dolby AC3 48000Hz 6ch 384kbps Rus Tili--

Media Info

General
Format : Matroska
Format version : Version 4 / Version 2
File size : 1.53 GiB
Duration : 1 h 25 min
Overall bit rate : 2 563 kb/s
Encoded date : UTC 2019-07-04 13:45:13
Writing application : mkvmerge v15.0.0 ('Duel with the Devil') 64-bit
Writing library : libebml v1.3.5 + libmatroska v1.4.5
Video
ID : 1
Format : MPEG-4 Visual
Format profile : Advanced Simple@L5
Format settings, BVOP : 1
Format settings, QPel : No
Format settings, GMC : No warppoints
Format settings, Matrix : Custom
Codec ID : V_MS/VFW/FOURCC / XVID
Codec ID/Hint : XviD
Duration : 1 h 25 min
Bit rate : 2 049 kb/s
Width : 720 pixels
Height : 304 pixels
Display aspect ratio : 2.35:1
Frame rate mode : Constant
Frame rate : 23.976 (23976/1000) FPS
Color space : YUV
Chroma subsampling : 4:2:0
Bit depth : 8 bits
Scan type : Progressive
Compression mode : Lossy
Bits/(Pixel*Frame) : 0.391
Stream size : 1.22 GiB (80%)
Writing library : XviD 73
Default : Yes
Forced : No
Audio #1
ID : 2
Format : MPEG Audio
Format version : Version 1
Format profile : Layer 3
Mode : Joint stereo
Codec ID : A_MPEG/L3
Codec ID/Hint : MP3
Duration : 1 h 25 min
Bit rate mode : Constant
Bit rate : 128 kb/s
Channel(s) : 2 channels
Sampling rate : 48.0 kHz
Frame rate : 41.667 FPS (1152 SPF)
Compression mode : Lossy
Stream size : 78.1 MiB (5%)
Title : O'zbek Tili
Writing library : LAME3.99.5ЄЄЄЄЄЄЄЄЄЄ
Language : Uzbek
Default : Yes
Forced : No
Audio #2
ID : 3
Format : AC-3
Format/Info : Audio Coding 3
Format settings, Endianness : Big
Codec ID : A_AC3
Duration : 1 h 25 min
Bit rate mode : Constant
Bit rate : 384 kb/s
Channel(s) : 6 channels
Channel positions : Front: L C R, Side: L R, LFE
Sampling rate : 48.0 kHz
Frame rate : 31.250 FPS (1536 SPF)
Bit depth : 16 bits
Compression mode : Lossy
Stream size : 234 MiB (15%)
Title : Rus Tili
Language : Russian
Service kind : Complete Main
Default : No
Forced : No
LAVHALAR
.torrent yuklash

Yuqori tezlikda va bepul ko‘chirish!

Qanday yuklab olinadi? · Torrent nima o‘zi? · Reyting va cheklovlar

Profil ShX
Xabarlarni ko‘rsatish:    

Hozirgi vaqt: 23-Iyul 03:29

Vaqtlar farqi: UTC + 5



Siz mavzu yaratishingiz mumkin emas
Siz xabarlarga javob qaytarishingiz mumkin emas
Siz o‘z xabarlaringizni tahrirlashingiz mumkin emas
Siz o‘z xabarlaringizni o‘chirishingiz mumkin emas
Siz so‘rovlarda ovoz berishingiz mumkin emas
Siz xabalarga fayllarni biriktirishingiz mumkin emas
Siz fayllarni ko‘chirishingiz mumkin emas