˂
˃
Tarqatmalar statistikasi
Ko‘chirmoqdaman: [ 1 ]
Ko‘chirib bo‘ldim: [ 7 ]
 
     
 
 

AxeL ®

Jins:
Yigit
Staj:
1 yil 4 oy
Xabarlar:
743

Qayerdan: Gronland, Norway

Taqiq:

Imperator / Похождения императора / The Emperor's New Groove- Chiqqan yili: 2000
Davlat: AQSH
Janr: multfilm, fentezi, komediya, oilaviy
Davomiyligi: 01:18:36
Tarjima: To'liq Dublyaj O'zbek tilida-Rejissyor: Mark Dindal--Rollarda: Devid Speyd, Jon Gudman, Erta Kitt, Patrik Varberton, Uendi Melik, Kellienn Kelso, Eli Rassell Linets, Tom Jons, Stiven J. Anderson, Bob Bergen, Rodjer Bampass, Robert Klotuorti--Tavsif: Xar bir qirol kabi imperator Kusko ham juda band. Ammo uning so'nggi ishg'oli katta muammolarga aylanishi bilan tahdid qilmoqda: hukmdor qirollikning qishlog'idan birining oldingi qismini yiqitib, o'zi uchun suv parkini qurishga qaror qildi.-- -Sifat: BDRip 720p
Format: MKV
Video: XVID 1152x688 23.976fps 1 750 Kbps
Audio №3: MP3 44100Hz stereo 136kbps [O'zbekcha]-

Media Info

General
Unique ID : 236284852795542872867895494151214240207 (0xB1C2CEADDC6320902D23A9522C3C91CF)
Complete name : D:\Films\Multfilms\HD Video\Imperatorning sarguzashtlari.Uzb.BD720p.mkv
Format : Matroska
Format version : Version 4 / Version 2
File size : 1.04 GiB
Duration : 1h 18mn
Overall bit rate mode : Variable
Overall bit rate : 1 888 Kbps
Encoded date : UTC 2019-01-06 15:49:32
Writing application : mkvmerge v22.0.0 ('At The End Of The World') 64-bit
Writing library : libebml v1.3.5 + libmatroska v1.4.8
Video
ID : 1
Format : AVC
Format/Info : Advanced Video Codec
Format profile : High@L4
Format settings, CABAC : Yes
Format settings, ReFrames : 9 frames
Codec ID : V_MPEG4/ISO/AVC
Duration : 1h 18mn
Bit rate : 1 750 Kbps
Width : 1 152 pixels
Height : 688 pixels
Display aspect ratio : 5:3
Frame rate mode : Constant
Frame rate : 23.976 fps
Color space : YUV
Chroma subsampling : 4:2:0
Bit depth : 8 bits
Scan type : Progressive
Bits/(Pixel*Frame) : 0.092
Stream size : 984 MiB (93%)
Writing library : x264 core 133 r2334 a3ac64b
Encoding settings : cabac=1 / ref=9 / deblock=1:-1:-1 / analyse=0x3:0x133 / me=umh / subme=11 / psy=1 / psy_rd=1.00:0.10 / mixed_ref=1 / me_range=48 / chroma_me=1 / trellis=2 / 8x8dct=1 / cqm=0 / deadzone=21,11 / fast_pskip=0 / chroma_qp_offset=-3 / threads=6 / lookahead_threads=1 / sliced_threads=0 / nr=0 / decimate=1 / interlaced=0 / bluray_compat=0 / constrained_intra=0 / bframes=8 / b_pyramid=2 / b_adapt=2 / b_bias=0 / direct=3 / weightb=1 / open_gop=0 / weightp=2 / keyint=250 / keyint_min=23 / scenecut=40 / intra_refresh=0 / rc_lookahead=50 / rc=2pass / mbtree=1 / bitrate=1750 / ratetol=1.0 / qcomp=0.60 / qpmin=0 / qpmax=69 / qpstep=4 / cplxblur=20.0 / qblur=0.5 / ip_ratio=1.40 / aq=1:1.00
Default : Yes
Forced : No
Audio
ID : 2
Format : MPEG Audio
Format version : Version 1
Format profile : Layer 3
Mode : Joint stereo
Mode extension : MS Stereo
Codec ID : A_MPEG/L3
Codec ID/Hint : MP3
Duration : 1h 18mn
Bit rate mode : Variable
Bit rate : 136 Kbps
Minimum bit rate : 32.0 Kbps
Channel(s) : 2 channels
Sampling rate : 44.1 KHz
Frame rate : 38.281 fps (1152 spf)
Compression mode : Lossy
Stream size : 76.4 MiB (7%)
Title : AxeL
Writing library : LAME3.99r
Encoding settings : -m j -V 3 -q 0 -lowpass 18 --vbr-new -b 32
Language : Uzbek
Default : No
Forced : No
-
.torrent yuklash

Yuqori tezlikda va bepul ko‘chirish!

Qanday yuklab olinadi? · Torrent nima o‘zi? · Reyting va cheklovlar



So‘ngi marta tahrirlandi: AxeL (2018-04-28 18:48), Jami tahrirlangan 5 marta
Profil ShX

AxeL ®

Jins:
Yigit
Staj:
1 yil 4 oy
Xabarlar:
743

Qayerdan: Gronland, Norway

Taqiq:

Bir ikkita o'zgartirish kiritilib qayta reliz qilindi, hammaga tavsiya etaman ajoyib multfilm

Mavzu yaratish 06-Yan-2019 23:05 (8 oy 19 kun o‘tgach)

Iqitibos

Profil ShX
Xabarlarni ko‘rsatish:    

Hozirgi vaqt: 23-Iyul 03:19

Vaqtlar farqi: UTC + 5



Siz mavzu yaratishingiz mumkin emas
Siz xabarlarga javob qaytarishingiz mumkin emas
Siz o‘z xabarlaringizni tahrirlashingiz mumkin emas
Siz o‘z xabarlaringizni o‘chirishingiz mumkin emas
Siz so‘rovlarda ovoz berishingiz mumkin emas
Siz xabalarga fayllarni biriktirishingiz mumkin emas
Siz fayllarni ko‘chirishingiz mumkin emas